Шилов М. - Железная голень (2012) Rip


Ответить на тему
 
Автор Сообщение

Scarecrow ®

Создавать темы 12-Июн-2013 14:02

Автор: Шилов Михаил
Название: Железная голень
Год: 2012
Формат: .mkv
Сайт: здесь
Уникальный видеокурс, не имеющий аналогов в мире
(лучшее на сегодняшний день руководство по комплексному укреплению голени)
Это курс о том, как укрепить и закалить голень. Как сделать прочными все структуры голени, а не просто снизить болевую чувствительность.
mediainfo
Общее
Уникальный идентификатор : 184671317478680928120424006524992515028 (0x8AEE66EACB1DEFB7A6E047E1B3806BD4)
Полное имя : C:\Users\SuperUser\Desktop\голень\Шилов М. - Железная голень (2012) Rip.mkv
Формат : Matroska
Версия формата : Version 2
Размер файла : 2,18 Гбайт
Продолжительность : 4 ч. 7 м.
Общий поток : 1259 Кбит/сек
Дата кодирования : UTC 2013-06-12 10:57:56
Программа кодирования : mkvmerge v6.2.0 ('Promised Land') built on Apr 28 2013 12:22:01
Библиотека кодирования : libebml v1.3.0 + libmatroska v1.4.0
Видео
Идентификатор : 1
Формат : AVC
Формат/Информация : Advanced Video Codec
Профиль формата : High@L4.1
Параметр CABAC формата : Да
Параметр ReFrames формата : 12 кадров
Идентификатор кодека : V_MPEG4/ISO/AVC
Продолжительность : 4 ч. 7 м.
Битрейт : 1065 Кбит/сек
Ширина : 720 пикселей
Высота : 528 пикселей
Соотношение сторон : 4:3
Режим частоты кадров : Постоянный
Частота кадров : 25,000 кадров/сек
Цветовое пространство : YUV
Субдискретизация насыщенности : 4:2:0
Битовая глубина : 8 бит
Тип развёртки : Прогрессивная
Бит/(Пиксели*Кадры) : 0.112
Размер потока : 1,80 Гбайт (83%)
Библиотека кодирования : x264 core 133 r2334 a3ac64b
Настройки программы : cabac=1 / ref=12 / deblock=1:0:0 / analyse=0x3:0x133 / me=umh / subme=10 / psy=1 / psy_rd=1.00:0.15 / mixed_ref=1 / me_range=32 / chroma_me=1 / trellis=2 / 8x8dct=1 / cqm=0 / deadzone=21,11 / fast_pskip=0 / chroma_qp_offset=-3 / threads=12 / lookahead_threads=1 / sliced_threads=0 / nr=0 / decimate=0 / interlaced=0 / bluray_compat=0 / constrained_intra=0 / bframes=5 / b_pyramid=2 / b_adapt=2 / b_bias=0 / direct=3 / weightb=1 / open_gop=0 / weightp=2 / keyint=250 / keyint_min=25 / scenecut=40 / intra_refresh=0 / rc_lookahead=60 / rc=2pass / mbtree=1 / bitrate=1065 / ratetol=1.0 / qcomp=0.60 / qpmin=10 / qpmax=51 / qpstep=4 / cplxblur=20.0 / qblur=0.5 / vbv_maxrate=62500 / vbv_bufsize=78125 / nal_hrd=none / ip_ratio=1.40 / aq=2:1.00
Язык : English
Default : Да
Forced : Нет
Аудио
Идентификатор : 2
Формат : AC-3
Формат/Информация : Audio Coding 3
Расширение режима : CM (complete main)
Параметр Endianness формата : Big
Идентификатор кодека : A_AC3
Продолжительность : 4 ч. 7 м.
Вид битрейта : Постоянный
Битрейт : 192 Кбит/сек
Каналы : 2 канала
Расположение каналов : Front: L R
Частота : 48,0 КГц
Битовая глубина : 16 бит
Метод сжатия : С потерями
Задержка видео : 24 мс.
Размер потока : 340 Мбайт (15%)
Default : Да
Forced : Нет
Скриншоты, скринлист:
-Продолжительность: 04:07:24
Видео: x264, 720x400, 1065 кбит/с, 0,148 бит/пиксель
Аудио: AC-3, 2 ch, 192 кбит/c-Автор рипа: Scarecrow
За исходник благодарность bat55 ®
[ ОТВЕТЫ НА ВАШИ ВОПРОСЫ ]

Да как скачать-то тут??? · А где ссылка скачать? · Что такое торрент? · Рейтинг и ограничения



Последний раз редактировалось: Scarecrow (2013-06-14 18:12), всего редактировалось 5 раз(а)
 

Borka

Создавать темы 08-Июл-2013 21:59 (спустя 26 дней)

Спасибо за рип. Со среды иду тренироваться тайскому боксу в элитный клуб, теперь актуально :)
 

vik2

Создавать темы 11-Июл-2013 18:22 (спустя 2 дня 20 часов)

Просмотрел курс. Сделано очень на коленке, оценить здравость преподаваемой методики не имею возможность. Нужно чтобы отписались те, кто цельно занимался. Вообще, по большому счёту, они по-идее могли бы предоставить научное обоснование (раз врачи) с ренгенами, МРТ, именами-фамилиями и всем нужным.
Если говорить о авторе, то его он известен как барыжка и человек с которым не стоит связываться. Если пошерстить крупные форумы по боевым искуствам - оказалось что он там был успешно забанен за неадекватное поведение.
Ну и цитирую как мне его охарактерезовал мой тренер которому я весьма доверяю:
ааа, этот. барыга, одно время впаривал всем свою чудо-макивару, которую кто только не ломал, теперь взялся за видеокурсы. по-моему, жулик, я бы не стал связываться
 
Показать сообщения:    
Ответить на тему