Дашкиев М., Ватутин С. - Как открыть туристическое агентство и удвоить его продажи (2012) Rip


Ответить на тему
 
Автор Сообщение

Scarecrow ®

Создавать темы 27-Июн-2013 08:44

Автор: Михаил Дашкиев, Сергей Ватутин
Название: Как открыть туристическое агентство и удвоить его продажи
Год: 2012
Формат: .mkv (x264), wmv, doc, docx, xls, mp3
Сайт: здесь
Авторы курсов:
Сергей Ватутин — генеральный директор крупнейшейтуристической сети «1001 Тур» и создатель туристического портала turizm.ru
Михаил Дашкиев — генеральный директор маркетингового агентства Mokselle и, в частности, дочерней компании Travelbiznes, занимающейся только туристическим направлением. Сооснователь и руководитель проекта «Бизнес-молодость»
В комплект входят:
Описание далее
Практический курс «Секреты работы с постоянными клиентами»
Видеокурс научит грамотно работать с клиентской базой. Вы гарантированно увеличите число постоянных клиентов в разы.
Программа курса:
Перестаем терять деньги
Работаем с постоянными клиентами
Продаем с помощью акций
Делаем соседей клиентами
Практический курс «Как бороться со скидками»
Видеокурс поможет избавиться от бесконечного демпинга в турагентстве.
Программа курса:
Привлекаем «правильных» клиентов
Как говорить с клиентом
Альтернативные козыри
Дайте клиенту выиграть
Практический курс «5 шагов для роста продаж Вашего туристического агентства»
В этом курсе мы расскажем Вам о 5 шагах, с которых нужно начать, если Вы решили увеличить продажи своего агентства. Следуя этим шагам, Вы получите результаты уже в ближайшее время.
DVD диск с записью семинара
Аудио курс «3 секрета найма высококлассных менеджеров по продажам»
Практический курс «Как продавать туры по телефону»
Практический курс «Как продавать туры по телефону»
В этом курсе мы расскажем Вам о том, как должен вести себя менеджер, о чем разговаривать и какие вопросы задавать, чтобы человек на другом конце телефонного провода стал Вашим постоянным клиентом.
Какие бывают типичные ошибки при продажах и как их избежать
Как провести первичный аудит Ваших продаж
Практический курс «Как найти, привлечь и удержать хороших менеджеров по туризму»
На прилагаемом диске Вы найдете самые ценные инструменты для привлечения к Вам хороших сотрудников и повышению эффективности их работы.
Аудио семинар «Секреты найма высококлассных менеджеров по туризму»
Видеосеминар «Как грамотно мотивировать менеджеров по туризму»
Практический курс «Как открыть турагентство»
«Как открыть турагентство». Но это не только предостережение от ошибок. Курс представляет собой пошаговую выстраиваемую систему по открытию турагентства и выведению его в прибыль.
Турбизнес, основы и специфика
Юридические аспекты
Где и когда открываться?
Практический курс «Как поднять продажи с помощью Интернет-рекламы»
Практический курс «Как поднять продажи с помощью Интернет-рекламы»
Ваши продажи стремительно падают?
От Вас уходят даже постоянные клиенты?
Огромные деньги, вложенные в рекламу, не дали ни одного звонка?
Стандартные методы продвижения перестали работать?
А новые стоят слишком дорого?
Вы подумываете о закрытии?
Автор рипа: Scarecrow
За исходник благодарность Nikitich'у
Скриншоты
mediainfo
Общее
Уникальный идентификатор : 209633460776496384557851667029979756401 (0x9DB5EF9A1FC961468DE82614196EF771)
Полное имя : D:\Дашкиев М., Ватутин С. - Как открыть туристическое агентство и удвоить его продажи (2012)\05_Как поднять продажи с помощью Интернет-рекламы\DVD2_Rip.mkv
Формат : Matroska
Версия формата : Version 2
Размер файла : 699 Мбайт
Продолжительность : 47 м.
Общий поток : 2078 Кбит/сек
Дата кодирования : UTC 2013-06-22 08:29:59
Программа кодирования : mkvmerge v6.2.0 ('Promised Land') built on Apr 28 2013 12:22:01
Библиотека кодирования : libebml v1.3.0 + libmatroska v1.4.0
Видео
Идентификатор : 1
Формат : AVC
Формат/Информация : Advanced Video Codec
Профиль формата : High@L4.1
Параметр CABAC формата : Да
Параметр ReFrames формата : 12 кадров
Идентификатор кодека : V_MPEG4/ISO/AVC
Продолжительность : 47 м.
Битрейт : 1820 Кбит/сек
Ширина : 720 пикселей
Высота : 400 пикселей
Соотношение сторон : 16:9
Режим частоты кадров : Постоянный
Частота кадров : 25,000 кадров/сек
Цветовое пространство : YUV
Субдискретизация насыщенности : 4:2:0
Битовая глубина : 8 бит
Тип развёртки : Прогрессивная
Бит/(Пиксели*Кадры) : 0.253
Размер потока : 599 Мбайт (86%)
Библиотека кодирования : x264 core 133 r2334 a3ac64b
Настройки программы : cabac=1 / ref=12 / deblock=1:0:0 / analyse=0x3:0x113 / me=umh / subme=10 / psy=1 / psy_rd=1.00:0.15 / mixed_ref=1 / me_range=32 / chroma_me=1 / trellis=2 / 8x8dct=1 / cqm=0 / deadzone=21,11 / fast_pskip=0 / chroma_qp_offset=-3 / threads=16 / lookahead_threads=1 / sliced_threads=0 / nr=0 / decimate=0 / interlaced=0 / bluray_compat=0 / constrained_intra=0 / bframes=5 / b_pyramid=2 / b_adapt=2 / b_bias=0 / direct=3 / weightb=1 / open_gop=0 / weightp=2 / keyint=250 / keyint_min=25 / scenecut=40 / intra_refresh=0 / rc_lookahead=60 / rc=2pass / mbtree=1 / bitrate=1820 / ratetol=1.0 / qcomp=0.60 / qpmin=10 / qpmax=51 / qpstep=4 / cplxblur=20.0 / qblur=0.5 / vbv_maxrate=62500 / vbv_bufsize=78125 / nal_hrd=none / ip_ratio=1.40 / aq=2:1.00
Язык : English
Default : Да
Forced : Нет
Аудио
Идентификатор : 2
Формат : MPEG Audio
Версия формата : Version 1
Профиль формата : Layer 2
Идентификатор кодека : A_MPEG/L2
Идентификатор кодека/Подсказка : MP2
Продолжительность : 47 м.
Вид битрейта : Постоянный
Битрейт : 256 Кбит/сек
Каналы : 2 канала
Частота : 48,0 КГц
Метод сжатия : С потерями
Размер потока : 86,1 Мбайт (12%)
Default : Да
Forced : Нет



ДашкиевВатутинТуризмТуристическое агенствоИнтернет-реклама

[ ОТВЕТЫ НА ВАШИ ВОПРОСЫ ]

Да как скачать-то тут??? · А где ссылка скачать? · Что такое торрент? · Рейтинг и ограничения



Последний раз редактировалось: Scarecrow (2013-06-30 18:42), всего редактировалось 2 раз(а)
 

Scarecrow ®

Создавать темы 29-Июн-2013 18:20 (спустя 2 дня 9 часов)

115952
Качество очень близко к оригиналу. И тут размер меньше за счёт того что вырезал аудио версию, оставил только видео версию, т.к. она включает в себя то же аудио. Исходное WAW аудио 1500 кбит в видеоряде пережал в mp3 128 кбит
Видео очень хорошо пожалось за счёт того, что в оригинале в половине дисков видеоряд состоит из презентации в виде 5-10 статических картинок
Да и есть же скриншоты, можете оценить качество
 
Показать сообщения:    
Ответить на тему