Oxford University Press - New English File Video DVD [DVD5] (2005)


Ответить на тему
 
Автор Сообщение

Qumir ®

Создавать темы 05-Июл-2013 00:18

Автор: Clive Oxenden, Christina Latham-Koenig, Paul Seligson
Название: New English File
Издательство: Oxford University Press
Язык: Английский
Год: 2005
Формат: .PUB, .VOB, .IFO
Сайт: здесь
Описание:
Комплект из 5 DVD New English Files.
New English Files - полностью новое издание, основанное на тех самых принципах, которые сделали English File столь популярным.
Пособие предназначено как для молодых, так и для взрослых людей, которым необходим английский язык для повседневного общения и путешествий.
С уверенностью можно сказать, что курс New English File является одним из самых популярных курсов английского языка. Комплекты учебников содержат в себе разнообразную информацию, как для студентов, так и для преподавателей. Видео материал поможет более наглядно объяснить все сложности и оставить в памяти заметный след. Упражнения, тесты, аудио- и видео материал воздействую на все органы восприятия информации человеком. Курс максимально облегчит процесс запоминания и использования полученной информации.
Видео DVD – видео курс, прилагаемый к учебному пособию. Представляет истории персонажей из учебника с использованием активной лексики и грамматики из уроков, большого количества функциональных фраз и языка, применяемого в общих ситуациях.
Видео направлено на то, чтобы сделать изучение английского увлекательным, и показать учащимся, что они могут понять настоящий разговорный английский.
Параметры раздаваемого видео
Advanced 01:20:56
Audio: Dolby AC3 48000Hz stereo 192kbps [AC-3]
Video: MPEG2 Video 720x480 (16:9) 29.97fps 5200kbps [Video]
MediaInfo
General
Format : MPEG-PS
File size : 1 024 MiB
Duration : 25mn 58s
Overall bit rate : 5 510 Kbps
Video
ID : 224 (0xE0)
Format : MPEG Video
Format version : Version 2
Format profile : Main@Main
Format settings, BVOP : Yes
Format settings, Matrix : Default
Format settings, GOP : M=3, N=15
Duration : 25mn 58s
Bit rate mode : Constant
Bit rate : 5 200 Kbps
Width : 720 pixels
Height : 480 pixels
Display aspect ratio : 16:9
Frame rate : 29.970 fps
Standard : NTSC
Color space : YUV
Chroma subsampling : 4:2:0
Bit depth : 8 bits
Scan type : Interlaced
Scan order : Bottom Field First
Compression mode : Lossy
Bits/(Pixel*Frame) : 0.502
Stream size : 968 MiB (95%)
Audio
ID : 189 (0xBD)-128 (0x80)
Format : AC-3
Format/Info : Audio Coding 3
Mode extension : CM (complete main)
Muxing mode : DVD-Video
Duration : 25mn 58s
Bit rate mode : Constant
Bit rate : 192 Kbps
Channel(s) : 2 channels
Channel positions : Front: L R
Sampling rate : 48.0 KHz
Bit depth : 16 bits
Compression mode : Lossy
Delay relative to video : -498ms
Stream size : 35.7 MiB (3%)
Text
ID : 189 (0xBD)-32 (0x20)
Format : RLE
Format/Info : Run-length encoding
Muxing mode : DVD-Video
Duration : 25mn 53s
Delay relative to video : 3s 36ms
Menu
Beginner 00:41:05
Audio: Dolby AC3 48000Hz stereo 192kbps [AC-3]
Video: MPEG2 Video 720x480 (16:9) 29.97fps 6200kbps [Video]
MediaInfo
General
Format : MPEG-PS
File size : 1 024 MiB
Duration : 21mn 58s
Overall bit rate : 6 513 Kbps
Video
ID : 224 (0xE0)
Format : MPEG Video
Format version : Version 2
Format profile : Main@Main
Format settings, BVOP : Yes
Format settings, Matrix : Default
Format settings, GOP : M=3, N=15
Duration : 21mn 58s
Bit rate mode : Constant
Bit rate : 6 200 Kbps
Width : 720 pixels
Height : 480 pixels
Display aspect ratio : 16:9
Frame rate : 29.970 fps
Standard : NTSC
Color space : YUV
Chroma subsampling : 4:2:0
Bit depth : 8 bits
Scan type : Interlaced
Scan order : Bottom Field First
Compression mode : Lossy
Bits/(Pixel*Frame) : 0.599
Stream size : 973 MiB (95%)
Audio
ID : 189 (0xBD)-128 (0x80)
Format : AC-3
Format/Info : Audio Coding 3
Mode extension : CM (complete main)
Muxing mode : DVD-Video
Duration : 21mn 58s
Bit rate mode : Constant
Bit rate : 192 Kbps
Channel(s) : 2 channels
Channel positions : Front: L R
Sampling rate : 48.0 KHz
Bit depth : 16 bits
Compression mode : Lossy
Stream size : 30.2 MiB (3%)
Menu
Elementary 01:06:41
Audio: Dolby AC3 48000Hz stereo 192kbps [AC-3]
Video: MPEG2 Video 720x480 (4:3) 29.97fps 7000kbps [Video]
MediaInfo
General
Format : MPEG-PS
File size : 1 024 MiB
Duration : 19mn 27s
Overall bit rate : 7 357 Kbps
Video
ID : 224 (0xE0)
Format : MPEG Video
Format version : Version 2
Format profile : Main@Main
Format settings, BVOP : Yes
Format settings, Matrix : Default
Duration : 19mn 27s
Bit rate mode : Constant
Bit rate : 7 000 Kbps
Width : 720 pixels
Height : 480 pixels
Display aspect ratio : 4:3
Frame rate : 29.970 fps
Standard : NTSC
Color space : YUV
Chroma subsampling : 4:2:0
Bit depth : 8 bits
Scan type : Interlaced
Scan order : Top Field First
Compression mode : Lossy
Bits/(Pixel*Frame) : 0.676
Stream size : 977 MiB (95%)
Audio
ID : 189 (0xBD)-128 (0x80)
Format : AC-3
Format/Info : Audio Coding 3
Mode extension : CM (complete main)
Muxing mode : DVD-Video
Duration : 19mn 27s
Bit rate mode : Constant
Bit rate : 192 Kbps
Channel(s) : 2 channels
Channel positions : Front: L R
Sampling rate : 48.0 KHz
Bit depth : 16 bits
Compression mode : Lossy
Delay relative to video : -67ms
Stream size : 26.7 MiB (3%)
Text
ID : 189 (0xBD)-32 (0x20)
Format : RLE
Format/Info : Run-length encoding
Muxing mode : DVD-Video
Intermediate 00:45:13
Audio: Dolby AC3 48000Hz stereo 192kbps [AC-3]
Video: MPEG2 Video 720x480 (16:9) 29.97fps 8100kbps [Video]
MediaInfo
General
Format : MPEG-PS
File size : 1 024 MiB
Duration : 23mn 31s
Overall bit rate : 6 086 Kbps
Video
ID : 224 (0xE0)
Format : MPEG Video
Format version : Version 2
Format profile : Main@Main
Format settings, BVOP : Yes
Format settings, Matrix : Default
Format settings, GOP : M=3, N=15
Duration : 23mn 31s
Bit rate mode : Variable
Bit rate : 5 773 Kbps
Nominal bit rate : 8 100 Kbps
Width : 720 pixels
Height : 480 pixels
Display aspect ratio : 16:9
Frame rate : 29.970 fps
Standard : NTSC
Color space : YUV
Chroma subsampling : 4:2:0
Bit depth : 8 bits
Scan type : Interlaced
Scan order : Bottom Field First
Compression mode : Lossy
Bits/(Pixel*Frame) : 0.557
Stream size : 971 MiB (95%)
Audio
ID : 189 (0xBD)-128 (0x80)
Format : AC-3
Format/Info : Audio Coding 3
Mode extension : CM (complete main)
Muxing mode : DVD-Video
Duration : 23mn 31s
Bit rate mode : Constant
Bit rate : 192 Kbps
Channel(s) : 2 channels
Channel positions : Front: L R
Sampling rate : 48.0 KHz
Bit depth : 16 bits
Compression mode : Lossy
Stream size : 32.3 MiB (3%)
Pre-Intermediate 00:54:04
Audio: Dolby AC3 48000Hz stereo 192kbps [AC-3]
Video: MPEG2 Video 720x480 (16:9) 29.97fps 8000kbps [Video]
MediaInfo
General
Format : MPEG-PS
File size : 1 024 MiB
Duration : 17mn 8s
Overall bit rate : 8 349 Kbps
Video
ID : 224 (0xE0)
Format : MPEG Video
Format version : Version 2
Format profile : Main@Main
Format settings, BVOP : Yes
Format settings, Matrix : Default
Duration : 17mn 8s
Bit rate mode : Constant
Bit rate : 8 000 Kbps
Width : 720 pixels
Height : 480 pixels
Display aspect ratio : 2.35:1
Frame rate : 29.970 fps
Standard : NTSC
Color space : YUV
Chroma subsampling : 4:2:0
Bit depth : 8 bits
Scan type : Interlaced
Scan order : Top Field First
Compression mode : Lossy
Bits/(Pixel*Frame) : 0.772
Stream size : 980 MiB (96%)
Audio
ID : 189 (0xBD)-128 (0x80)
Format : AC-3
Format/Info : Audio Coding 3
Mode extension : CM (complete main)
Muxing mode : DVD-Video
Duration : 17mn 8s
Bit rate mode : Constant
Bit rate : 192 Kbps
Channel(s) : 2 channels
Channel positions : Front: L R
Sampling rate : 48.0 KHz
Bit depth : 16 bits
Compression mode : Lossy
Delay relative to video : -223ms
Stream size : 23.5 MiB (2%)
Upper-Intermediate 01:13:48
Audio: Dolby AC3 48000Hz stereo 192kbps [AC-3]
Video: MPEG2 Video 720x480 (16:9) 29.97fps 6500kbps [Video]
MediaInfo
General
Format : MPEG-PS
File size : 1 024 MiB
Duration : 20mn 58s
Overall bit rate : 6 825 Kbps
Video
ID : 224 (0xE0)
Format : MPEG Video
Format version : Version 2
Format profile : Main@Main
Format settings, BVOP : Yes
Format settings, Matrix : Default
Format settings, GOP : M=3, N=15
Duration : 20mn 58s
Bit rate mode : Constant
Bit rate : 6 500 Kbps
Width : 720 pixels
Height : 480 pixels
Display aspect ratio : 16:9
Frame rate : 29.970 fps
Standard : NTSC
Color space : YUV
Chroma subsampling : 4:2:0
Bit depth : 8 bits
Scan type : Interlaced
Scan order : Bottom Field First
Compression mode : Lossy
Bits/(Pixel*Frame) : 0.628
Stream size : 975 MiB (95%)
Audio
ID : 189 (0xBD)-128 (0x80)
Format : AC-3
Format/Info : Audio Coding 3
Mode extension : CM (complete main)
Muxing mode : DVD-Video
Duration : 20mn 58s
Bit rate mode : Constant
Bit rate : 192 Kbps
Channel(s) : 2 channels
Channel positions : Front: L R
Sampling rate : 48.0 KHz
Bit depth : 16 bits
Compression mode : Lossy
Delay relative to video : -188ms
Stream size : 28.8 MiB (3%)
Text
ID : 189 (0xBD)-32 (0x20)
Format : RLE
Format/Info : Run-length encoding
Muxing mode : DVD-Video
Duration : 20mn 55s
Delay relative to video : 134ms
 

watson

Создавать темы 05-Июл-2013 00:21 (спустя 3 минуты)

http://nnm-club.ru/forum/viewtopic.php?t=631375
http://www.pslan.com/details.php?id=223523
 

Создавать темы 05-Июл-2013 07:26 (спустя 7 часов)

Топик был перенесен из форума Для новых раздач в форум Апгрейд

eset
 

Qumir ®

Создавать темы 21-Июл-2013 18:51 (спустя 16 дней)

Винда полетела. Пришлось переустанавливать, перезалью через пару дней.
 
Показать сообщения:    
Ответить на тему