Ушанов А. - Золотой актив 2.0 (2011) Rip


Ответить на тему
 
Автор Сообщение

Scarecrow ®

Создавать темы 31-Июл-2013 21:33

Автор: Азамат Ушанов
Название: Золотой актив 2.0"
Год: 2011
Формат: mkv (x264)
Сайт: здесь
Видеокурс «Золотой актив 2.0» Построение и монетизация базы подписчиков от А до Я, включает в себя полный набор всех инструментов и технологий, которые необходимы для построения солидной базы подписчиков за короткий срок и её эффективной и быстрой монетизации.
После прохождения тренинга Вы сможете:
• Самостоятельно построить личную базу подписчиков.
• Вы научитесь: на стабильной основе быстро и эффективно привлекать сотни и тысячи подписчиков в свою базу подписчиков почтовой рассылки;
• Устанавливать с пользователями своей почтовой рассылки такой доверительный контакт, который позволит получать невероятный отклик на Вашу информацию в письмах почтовой рассылки в виде сотен заказов;
• Грамотно монетизировать свою базу подписчиков.
Автор рипа: Scarecrow
За исходник благодарность specialsuper'у
mediainfo
Общее
Уникальный идентификатор : 202023096584304240674269360670856453061 (0x97FC3BAD8D804138928CB2183A241BC5)
Полное имя : D:\Ушанов А. - Золотой актив 2.0 (2011) Rip\DVD1_Rip.mkv
Формат : Matroska
Версия формата : Version 2
Размер файла : 1,36 Гбайт
Продолжительность : 2 ч. 35 м.
Общий поток : 1249 Кбит/сек
Дата кодирования : UTC 2013-07-28 14:54:13
Программа кодирования : mkvmerge v6.3.0 ('You can't stop me!') built on Jun 28 2013 20:09:41
Библиотека кодирования : libebml v1.3.0 + libmatroska v1.4.0
Видео
Идентификатор : 1
Формат : AVC
Формат/Информация : Advanced Video Codec
Профиль формата : High@L4.1
Параметр CABAC формата : Да
Параметр ReFrames формата : 12 кадров
Идентификатор кодека : V_MPEG4/ISO/AVC
Продолжительность : 2 ч. 35 м.
Битрейт : 1023 Кбит/сек
Ширина : 720 пикселей
Высота : 400 пикселей
Соотношение сторон : 16:9
Режим частоты кадров : Постоянный
Частота кадров : 25,000 кадров/сек
Цветовое пространство : YUV
Субдискретизация насыщенности : 4:2:0
Битовая глубина : 8 бит
Тип развёртки : Прогрессивная
Бит/(Пиксели*Кадры) : 0.142
Размер потока : 1,09 Гбайт (80%)
Библиотека кодирования : x264 core 135 r2345 f0c1c53
Настройки программы : cabac=1 / ref=12 / deblock=1:0:0 / analyse=0x3:0x113 / me=umh / subme=9 / psy=1 / psy_rd=1.00:0.15 / mixed_ref=1 / me_range=32 / chroma_me=1 / trellis=2 / 8x8dct=1 / cqm=0 / deadzone=21,11 / fast_pskip=0 / chroma_qp_offset=-3 / threads=16 / lookahead_threads=1 / sliced_threads=0 / nr=0 / decimate=0 / interlaced=0 / bluray_compat=0 / constrained_intra=0 / bframes=4 / b_pyramid=2 / b_adapt=2 / b_bias=0 / direct=3 / weightb=1 / open_gop=0 / weightp=2 / keyint=250 / keyint_min=25 / scenecut=40 / intra_refresh=0 / rc_lookahead=120 / rc=2pass / mbtree=1 / bitrate=1023 / ratetol=1.0 / qcomp=0.60 / qpmin=10 / qpmax=51 / qpstep=4 / cplxblur=20.0 / qblur=0.5 / vbv_maxrate=62500 / vbv_bufsize=78125 / nal_hrd=none / ip_ratio=1.40 / aq=1:1.00
Язык : English
Default : Да
Forced : Нет
Аудио
Идентификатор : 2
Формат : MPEG Audio
Версия формата : Version 1
Профиль формата : Layer 2
Идентификатор кодека : A_MPEG/L2
Идентификатор кодека/Подсказка : MP2
Продолжительность : 2 ч. 35 м.
Вид битрейта : Постоянный
Битрейт : 224 Кбит/сек
Каналы : 2 канала
Частота : 48,0 КГц
Метод сжатия : С потерями
Размер потока : 249 Мбайт (18%)
Default : Да
Forced : Нет
Скриншоты:



УшановРассылкаМонетизация

[ ОТВЕТЫ НА ВАШИ ВОПРОСЫ ]

Да как скачать-то тут??? · А где ссылка скачать? · Что такое торрент? · Рейтинг и ограничения

 
Показать сообщения:    
Ответить на тему