Попов Е. - Семинар в Киеве - Киевский Лайтхаус (2007) [Rip]


Ответить на тему
 
Автор Сообщение

Scarecrow ®

Создавать темы 02-Апр-2013 13:50

Автор: Евгений Попов, Игорь Осипенко, Азамат Ушанов, Булат Шамсутов, Юсуф Губайдуллин, Вик Орлов и др.
Название: "Киевский Лайтхаус"
Год: 2007
Формат: mkv (x264)
Сайт: здесь
2-й выездной семинар в Киеве "Киевский Лайтхаус"
Отчет о семинаре Евгения Попова:
18-го июля 2007 года мы дружной компанией Интернет-бизнесменов вернулись со второго по счёту лайтхауса, который прошел в славном городе Киеве.
Пока все эмоции от этого события ещё вертятся в голове, решил написать для Вас небольшой отчет.
Автор рипа: Scarecrow
За исходник благодарность Rodef'у
mediainfo
Общее
Уникальный идентификатор : 195232398502879467759546673219372344821 (0x92E06469C880A42CB54782CA2F4465F5)
Полное имя : D:\Попов Е. - Семинар в Киеве - Киевский Лайтхаус (2007) DVDRip\3 день.mkv
Формат : Matroska
Версия формата : Version 2
Размер файла : 1,45 Гбайт
Продолжительность : 3 ч. 2 м.
Общий поток : 1136 Кбит/сек
Дата кодирования : UTC 2013-04-02 11:09:10
Программа кодирования : mkvmerge v6.1.0 ('Old Devil') built on Mar 2 2013 14:32:37
Библиотека кодирования : libebml v1.3.0 + libmatroska v1.4.0
Видео
Идентификатор : 1
Формат : AVC
Формат/Информация : Advanced Video Codec
Профиль формата : High@L4.1
Параметр CABAC формата : Да
Параметр ReFrames формата : 12 кадров
Идентификатор кодека : V_MPEG4/ISO/AVC
Продолжительность : 3 ч. 2 м.
Битрейт : 922 Кбит/сек
Номинальный битрейт : 1918 Кбит/сек
Ширина : 720 пикселей
Высота : 400 пикселей
Соотношение сторон : 16:9
Режим частоты кадров : Постоянный
Частота кадров : 25,000 кадров/сек
Цветовое пространство : YUV
Субдискретизация насыщенности : 4:2:0
Битовая глубина : 8 бит
Тип развёртки : Прогрессивная
Бит/(Пиксели*Кадры) : 0.128
Размер потока : 1,18 Гбайт (81%)
Библиотека кодирования : x264 core 130 r2273 b3065e6
Настройки программы : cabac=1 / ref=12 / deblock=1:0:0 / analyse=0x3:0x113 / me=umh / subme=9 / psy=1 / psy_rd=1.00:0.15 / mixed_ref=1 / me_range=32 / chroma_me=1 / trellis=2 / 8x8dct=1 / cqm=0 / deadzone=21,11 / fast_pskip=0 / chroma_qp_offset=-3 / threads=3 / lookahead_threads=1 / sliced_threads=0 / nr=0 / decimate=1 / interlaced=0 / bluray_compat=0 / constrained_intra=0 / bframes=4 / b_pyramid=2 / b_adapt=2 / b_bias=0 / direct=3 / weightb=1 / open_gop=0 / weightp=2 / keyint=250 / keyint_min=25 / scenecut=40 / intra_refresh=0 / rc_lookahead=60 / rc=2pass / mbtree=1 / bitrate=1918 / ratetol=1.0 / qcomp=0.60 / qpmin=0 / qpmax=69 / qpstep=4 / cplxblur=20.0 / qblur=0.5 / vbv_maxrate=62500 / vbv_bufsize=78125 / nal_hrd=none / ip_ratio=1.40 / aq=1:1.00
Язык : English
Default : Да
Forced : Нет
Аудио
Идентификатор : 2
Формат : AC-3
Формат/Информация : Audio Coding 3
Расширение режима : CM (complete main)
Параметр Endianness формата : Big
Идентификатор кодека : A_AC3
Продолжительность : 3 ч. 2 м.
Вид битрейта : Постоянный
Битрейт : 192 Кбит/сек
Каналы : 2 канала
Расположение каналов : Front: L R
Частота : 48,0 КГц
Битовая глубина : 16 бит
Метод сжатия : С потерями
Размер потока : 251 Мбайт (17%)
Default : Да
Forced : Нет
[ ОТВЕТЫ НА ВАШИ ВОПРОСЫ ]

Да как скачать-то тут??? · А где ссылка скачать? · Что такое торрент? · Рейтинг и ограничения

 
Показать сообщения:    
Ответить на тему