Негодов М. - Сборка компьютера от А до Я (2012) [Rip]


Ответить на тему
 
Автор Сообщение

Scarecrow ®

Создавать темы 10-Апр-2013 19:48

Автор: Негодов Максим
Название: Сборка компьютера от А до Я
Год: 2012
Формат: .mp4 (x264), .flash, .exe
Сайт: здесь
Хотите освоить сборку компьютера?
Меня зовут Максим Негодов. Если Вы хотите научиться правильно выбирать комплектующие для своего компьютера и самостоятельно собирать его, Вы попали по адресу!
Описание далее
4 DVD с подробными видеоуроками, которые
сделают из Вас профи в сборке ПК!"

Курс состоит из 2-х основных модулей:
1) «Выбор комплектующих: теория и практика»
В теоретической части Вы узнаете все основные параметры комплектующих, а потом на практике увидите, как подбираются 3 конфигурации компьютера – офисная, домашняя и игровая.
Таким образом, Вы научитесь выбирать именно те комплектующие, которые лучше всего подходят для Вашей конфигурации компьютера.
2) «Сборка компьютера: теория и практика»
В теоретическом разделе Вы увидите, как подключаются и устанавливаются абсолютно все устройства системного блока, причем, во всех деталях, вне корпуса, и в HD качестве.
В практическом разделе мы пошагово соберем компьютер и Вы увидите правильную и более оптимальную последовательность сборки, при которой установленные устройства не будут мешать друг другу.
Автор рипа: Scarecrow: оставлена оригинальная структура диска, исходный звук и HD разрешение, ужат только битрейт видео
За исходник благодарность Olleger'у
mediainfo
Общее
Полное имя : D:\Негодов М. - Сборка компьютера от А до Я (2012) [Rip]\М.НЕГОДОВ _ Сборка ПК от А до Я _ Диск 3\lessons\01.mp4
Формат : MPEG-4
Профиль формата : Base Media
Идентификатор кодека : isom
Размер файла : 138 Мбайт
Продолжительность : 7 м. 50 с.
Режим общего битрейта : Переменный
Общий поток : 2457 Кбит/сек
Дата кодирования : UTC 2013-04-10 16:35:14
Дата пометки : UTC 2013-04-10 16:35:14
Видео
Идентификатор : 1
Формат : AVC
Формат/Информация : Advanced Video Codec
Профиль формата : High@L4.1
Параметр CABAC формата : Да
Параметр ReFrames формата : 9 кадров
Идентификатор кодека : avc1
Идентификатор кодека/Информация : Advanced Video Coding
Продолжительность : 7 м. 50 с.
Битрейт : 2300 Кбит/сек
Максимальный битрейт : 5462 Кбит/сек
Ширина : 1280 пикселей
Высота : 720 пикселей
Соотношение сторон : 16:9
Режим частоты кадров : Постоянный
Частота кадров : 25,000 кадров/сек
Цветовое пространство : YUV
Субдискретизация насыщенности : 4:2:0
Битовая глубина : 8 бит
Тип развёртки : Прогрессивная
Бит/(Пиксели*Кадры) : 0.100
Размер потока : 129 Мбайт (94%)
Библиотека кодирования : x264 core 130 r2273 b3065e6
Настройки программы : cabac=1 / ref=9 / deblock=1:0:0 / analyse=0x3:0x113 / me=umh / subme=10 / psy=1 / psy_rd=1.00:0.15 / mixed_ref=1 / me_range=32 / chroma_me=1 / trellis=2 / 8x8dct=1 / cqm=0 / deadzone=21,11 / fast_pskip=0 / chroma_qp_offset=-3 / threads=3 / lookahead_threads=1 / sliced_threads=0 / nr=0 / decimate=1 / interlaced=0 / bluray_compat=0 / constrained_intra=0 / bframes=5 / b_pyramid=2 / b_adapt=2 / b_bias=0 / direct=3 / weightb=1 / open_gop=0 / weightp=2 / keyint=250 / keyint_min=25 / scenecut=40 / intra_refresh=0 / rc_lookahead=60 / rc=2pass / mbtree=1 / bitrate=2300 / ratetol=1.0 / qcomp=0.60 / qpmin=0 / qpmax=69 / qpstep=4 / cplxblur=20.0 / qblur=0.5 / ip_ratio=1.40 / aq=1:1.00
Дата кодирования : UTC 2013-03-25 13:41:11
Дата пометки : UTC 2013-04-10 16:35:28
Аудио
Идентификатор : 2
Формат : AAC
Формат/Информация : Advanced Audio Codec
Профиль формата : LC
Идентификатор кодека : 40
Продолжительность : 7 м. 50 с.
Вид битрейта : Переменный
Битрейт : 152 Кбит/сек
Максимальный битрейт : 195 Кбит/сек
Каналы : 2 канала
Расположение каналов : Front: L R
Частота : 44,1 КГц
Метод сжатия : С потерями
Задержка видео : 80 мс.
Размер потока : 8,51 Мбайт (6%)
Заголовок : aac#trackID=1@GPAC0.5.1-DEV-rev4283
Дата кодирования : UTC 2013-04-10 16:35:20
Дата пометки : UTC 2013-04-10 16:35:28
[ ОТВЕТЫ НА ВАШИ ВОПРОСЫ ]

Да как скачать-то тут??? · А где ссылка скачать? · Что такое торрент? · Рейтинг и ограничения

 
Показать сообщения:    
Ответить на тему