Морозов В. - 2012 - апокалипсис отменяется! (2012) [Rip]


Ответить на тему
 
Автор Сообщение

Scarecrow ®

Создавать темы 03-Май-2013 19:30

Автор: Морозов В.
Название: 2012 - апокалипсис отменяется!
Год: 2012
Формат: .mkv (x264)
Сайт: здесь
Как известно, Земля вращается вокруг Солнца, в результате чего происходит смена времен года: лето – осень – зима - весна. Солнце, в свою очередь, также вращается, уже вокруг центра Галактики, в результате чего происходит смена эпох. Когда-то, много тысяч лет назад, переход из эпохи Золотого Века Вселенной в ее зимний период для Человека стал «Изгнанием из Рая».
Не для всех Великий Переход пройдет гладко. Чтобы пройти без потерь, надо очистить Душу, укрепить жизненный потенциал, Мужское и Женское Начала рода.
Лишь с чистой душой и с мощным запасом Светлых жизненных сил сможет преодолеть человек коллизии переходного периода и мягко преобразить свой организм к новому качеству Вселенских энергий. Об этом и расскажет семинар на DVD: «2012. Вся правда о Великом Переходе!»
Автор рипа: Scarecrow
За исходник благодарность Curious17
mediainfo
Общее
Уникальный идентификатор : 204883976599469092943291958437094978038 (0x9A2337F3EDB908499AFD00B53C1571F6)
Полное имя : D:\Морозов В. - 2012 - апокалипсис отменяется! (2012) DVDRip.mkv
Формат : Matroska
Версия формата : Version 2
Размер файла : 1,36 Гбайт
Продолжительность : 1 ч. 47 м.
Общий поток : 1802 Кбит/сек
Дата кодирования : UTC 2013-05-03 16:54:41
Программа кодирования : mkvmerge v6.2.0 ('Promised Land') built on Apr 28 2013 12:22:01
Библиотека кодирования : libebml v1.3.0 + libmatroska v1.4.0
Видео
Идентификатор : 1
Формат : AVC
Формат/Информация : Advanced Video Codec
Профиль формата : High@L4.1
Параметр CABAC формата : Да
Параметр ReFrames формата : 12 кадров
Идентификатор кодека : V_MPEG4/ISO/AVC
Продолжительность : 1 ч. 47 м.
Битрейт : 1576 Кбит/сек
Ширина : 720 пикселей
Высота : 576 пикселей
Соотношение сторон : 5:4
Режим частоты кадров : Постоянный
Частота кадров : 25,000 кадров/сек
Стандарт вещания : PAL
Цветовое пространство : YUV
Субдискретизация насыщенности : 4:2:0
Битовая глубина : 8 бит
Тип развёртки : Прогрессивная
Бит/(Пиксели*Кадры) : 0.152
Размер потока : 1,16 Гбайт (86%)
Библиотека кодирования : x264 core 132 r2309 3b1f1f7
Настройки программы : cabac=1 / ref=12 / deblock=1:0:0 / analyse=0x3:0x113 / me=umh / subme=9 / psy=1 / psy_rd=1.00:0.15 / mixed_ref=1 / me_range=32 / chroma_me=1 / trellis=2 / 8x8dct=1 / cqm=0 / deadzone=21,11 / fast_pskip=0 / chroma_qp_offset=-3 / threads=3 / lookahead_threads=1 / sliced_threads=0 / nr=0 / decimate=1 / interlaced=0 / bluray_compat=0 / constrained_intra=0 / bframes=4 / b_pyramid=2 / b_adapt=2 / b_bias=0 / direct=3 / weightb=1 / open_gop=0 / weightp=2 / keyint=250 / keyint_min=25 / scenecut=40 / intra_refresh=0 / rc_lookahead=60 / rc=2pass / mbtree=1 / bitrate=1576 / ratetol=1.0 / qcomp=0.60 / qpmin=0 / qpmax=69 / qpstep=4 / cplxblur=20.0 / qblur=0.5 / vbv_maxrate=62500 / vbv_bufsize=78125 / nal_hrd=none / ip_ratio=1.40 / aq=1:1.00
Язык : English
Default : Да
Forced : Нет
Аудио
Идентификатор : 2
Формат : MPEG Audio
Версия формата : Version 1
Профиль формата : Layer 2
Идентификатор кодека : A_MPEG/L2
Идентификатор кодека/Подсказка : MP2
Продолжительность : 1 ч. 47 м.
Вид битрейта : Постоянный
Битрейт : 224 Кбит/сек
Каналы : 2 канала
Частота : 48,0 КГц
Метод сжатия : С потерями
Задержка видео : 8 мс.
Размер потока : 173 Мбайт (12%)
Default : Да
Forced : Нет
[ ОТВЕТЫ НА ВАШИ ВОПРОСЫ ]

Да как скачать-то тут??? · А где ссылка скачать? · Что такое торрент? · Рейтинг и ограничения

 
Показать сообщения:    
Ответить на тему